Help - Search - Members - Calendar
Full Version: Nefilim - Cataclismo Social (2018)
Metal Area - Extreme Music Portal > Releases Area / Релизы > Archive
Samaritianin


*Artist: Nefilim
*Album: Cataclismo Social
*Year: 2018
*Genre: Thrash/Death Metal
*Country: Nicaragua
*Format: mp3@CBR320kbps
*Size: 100MB

Tracklist:
1. El Fruto del Odio 01:22
2. Cataclismo Social 03:29
3. Esvastico Tirano 05:01
4. Monopolio 04:53
5. El Umbral de la Muerte 04:07
6. En los Cimientos de la Destrucción 03:56
7. El Demonio de las Brumas 04:15
8. Programa Amorterazo 04:48
9. En los Ochentas 05:44
10. Ecos de Muerte 05:34
******************************
Total playing time: 43:09




Extended info
Cristopher Lopez Bass
Ricardo Antonio Drums
Dani Lopez Guitars
Juan Carlos Hernandez Vocals (lead)


Technical info

Input File: 03 - Esvastico Tirano.mp3
Channels : 2
Sample Rate : 44100
Precision : 16-bit
Duration : 00:05:01.48 = 13295312 samples = 22611.1 CDDA sectors
File Size : 12.2M
Bit Rate : 324k
Sample Encoding: MPEG audio (layer I, II or III)
Comments :
Title=Esvastico Tirano
Artist=Nefilim
Album=Cataclismo Social
Tracknumber=3/10
Year=2018



[ Hidden Text ]
Samaritianin
[ Hidden Text ]
This is a "lo-fi" version of our main content. To view the full version with more information, formatting and images, please click here.
Invision Power Board © 2001-2018 Invision Power Services, Inc.