Help - Search - Members - Calendar
Full Version: Cianuro - Resistencia (2018)
Metal Area - Extreme Music Portal > Releases Area / Релизы > New Releases
Samaritianin


*Artist: Cianuro
*Album: Resistencia
*Year: 2018
*Genre: Thrash Metal/Crossover
*Country: Chile
*Format: mp3@CBR320kbps
*Size: 60MB

Tracklist:
1. Traficante 03:10
2. Resistencia 03:03
3. Paranoia, Muerte y Soledad 04:24
4. Medios de Control 01:41
5. Pateando Ratas 02:16 instrumental
6. Parasito 03:40
7. Ambición 03:58
8. Mientes 03:26
******************************
Total playing time: 25:38




Extended info
Manuel Belmar Bass (2012-present)
See also: Agresor
Sebastian Torres Drums (2012-present)
Matías Valdés Guitars, Vocals (2012-present)


Technical info

Input File: 02 - Resistencia.mp3
Channels : 2
Sample Rate : 44100
Precision : 16-bit
Duration : 00:03:03.97 = 8113121 samples = 13797.8 CDDA sectors
File Size : 7.55M
Bit Rate : 328k
Sample Encoding: MPEG audio (layer I, II or III)
Comments :
Title=Resistencia
Artist=Cianuro
Album=Resistencia
Tracknumber=2/8
Year=2018



[ Hidden Text ]
Samaritianin
[ Hidden Text ]
This is a "lo-fi" version of our main content. To view the full version with more information, formatting and images, please click here.
Invision Power Board © 2001-2018 Invision Power Services, Inc.