Help - Search - Members - Calendar
Full Version: Assumption - Absconditus (2018)
Metal Area - Extreme Music Portal > Releases Area / Релизы > Archive
necroscum


*Artist: Assumption
*Album: Absconditus
*Year: 2018
*Genre: Doom/Death Metal
*Country: Italy
*Format: mp3@CBR320kbps
*Size: 84MB

Tracklist:
01. Liberation 15:31
02. Resurgence 06:13
03. Beholder Of The Asteroid Oceans (Part I & II) 15:08
******************************
Total playing time: 36:52




Technical info

Input File: 02. Resurgence.mp3
Channels : 2
Sample Rate : 44100
Precision : 16-bit
Duration : 00:06:13.30 = 16462442 samples = 27997.4 CDDA sectors
File Size : 15.1M
Bit Rate : 323k
Sample Encoding: MPEG audio (layer I, II or III)
Comments :
Title=Resurgence
Artist=Assumption
Album=Absconditus
Tracknumber=2/3
Year=2018
Discnumber=1/1



[ Hidden Text ]
Samaritianin
[ Hidden Text ]
andreikun
Хороший, без соплей.
Un4given
КанонiчноЪ, но с большим успехом можно переслушать ранний Evoken
quarantine
[ Hidden Text ]
This is a "lo-fi" version of our main content. To view the full version with more information, formatting and images, please click here.
Invision Power Board © 2001-2021 Invision Power Services, Inc.