Help - Search - Members - Calendar
Full Version: Sweet Crystal - Got Your Six (2018)
Metal Area - Extreme Music Portal > Releases Area / Релизы > Archive
Necrokilldozer


*Artist: Sweet Crystal
*Album: Got Your Six
*Year: 2018
*Genre: Melodic Heavy Metal
*Country: United States
*Format: mp3@CBR320kbps
*Size: 63MB

Tracklist:
1. Foot Of The Cross 03:31
2. Warriors 04:45
3. Can't Turn Back 03:50
4. In Your Name 04:17
5. Nothing Here (For You To Fear) 03:10
6. Prisoner, Unbound 06:20
******************************
Total playing time: 25:53



Extended info
Line - up:

Steve Weiser - Drums
Bill Blatter - Guitars, Vocals
Marq Andrew Speck - Vocals, Bass, Keyboards



Technical info

Input File: 04 In Your Name.mp3
Channels : 2
Sample Rate : 44100
Precision : 16-bit
Duration : 00:04:18.09 = 11381813 samples = 19356.8 CDDA sectors
File Size : 10.3M
Bit Rate : 320k
Sample Encoding: MPEG audio (layer I, II or III)
Comments :
Title=In Your Name
Artist=Sweet Crystal
Album=Got Your Six
Tracknumber=4
Year=2018
Genre=Melodic Heavy Metal



[ Hidden Text ]
zauber1
Неформат. Это рок. Даже не хард.
This is a "lo-fi" version of our main content. To view the full version with more information, formatting and images, please click here.
Invision Power Board © 2001-2018 Invision Power Services, Inc.