Help - Search - Members - Calendar
Full Version: Rotheads - Sewer Fiends (2018)
Metal Area - Extreme Music Portal > Releases Area / Релизы > Archive
Samaritianin


*Artist: Rotheads
*Album: Sewer Fiends
*Year: 2018
*Genre: Old School Death Metal
*Country: Romania
*Format: mp3@CBR320kbps
*Size: 95MB

Tracklist:
1. Sewer Fiends 03:22
2. From the Glowing Goo Rise 06:45
3. Rats in the Walls 06:46
4. Psychic Leech 05:27
5. Servants of the Unlight 04:03
6. The Mad Oracle of Seweropolis 10:52
7. Dance of the Vermin 05:02
******************************
Total playing time: 42:15




Extended info
Spurcăciune Bass (?-2016), Guitars, Vocals
See also: Void Forger
Bîrsatan Bass (2014-2015, 2016-present)
Potaie Drums (2016-present)
See also: ex-Spinecrusher
Omu' Rău Guitars


Technical info

Input File: 04 - Psychic Leech.mp3
Channels : 2
Sample Rate : 44100
Precision : 16-bit
Duration : 00:05:26.42 = 14395210 samples = 24481.6 CDDA sectors
File Size : 13.1M
Bit Rate : 320k
Sample Encoding: MPEG audio (layer I, II or III)
Comments :
Title=Psychic Leech
Artist=Rotheads
Album=Sewer Fiends
Tracknumber=4
Year=2018
Genre=Death Metal



[ Hidden Text ]
Andrew
[ Hidden Text ]
judaz
Адовый альбом.
troll_swamp
Слушаю уже в который раз, очень интересный альбом, со своей изюминкой, со своими фишечками, вот именно что олд-скулл, но очень круто приготовленный, вроде и не уходят так сказать от канонов, но альбом имеет именно своё лицо, и что самое интересное его хочется и хочется слушать вновь и вновь, и с каждым разом он интересней, блин ну круто ведь!!! Не пропускайте ни в коем случае, попробуйте на вкус, шикарное варево!!! Я бы даже сказал ЖЖЖИИИРРРРРРРРРРРРРР!!!
Golodomor
Монотонно и примитивно до безобразия. Однообразные риффы и соло мусолятся на протяжение всего хронометража, будто одна сплошная песня.
Даже для олдскула это слишком блекло и нудно21.gif
Leshiy666
Весьма порадовали румыны, добротное олдскульное валиво с кошерным правильным материалом и саундом что не мало важно!! 20.gif metaler.gif
Samaritianin
ЦИТАТА(deatholocaust @ 11th October 2018 - 17:37:51) *
лося плиз

Mediafire FLAC (tracks) 300mb
[ Hidden Text ]
This is a "lo-fi" version of our main content. To view the full version with more information, formatting and images, please click here.
Invision Power Board © 2001-2020 Invision Power Services, Inc.