Help - Search - Members - Calendar
Full Version: Fatal Malady - Burn (2018)
Metal Area - Extreme Music Portal > Releases Area / Релизы > Archive
Andrew


*Artist: Fatal Malady
*Album: Burn
*Year: 2018
*Genre: Heavy Metal
*Country: United States
*Format: mp3@CBR320kbps
*Size: 102MB

Tracklist:
01. Don't Back Down
02. America
03. Lesson in Pain
04. Burn
05. Never Again
06. Run
07. Illusion of Evil
08. Possession
09. Demonize
10. Duct Tape
******************************
Total playing time: 41:33






Technical info

Input File: 02. America.mp3
Channels : 2
Sample Rate : 44100
Precision : 16-bit
Duration : 00:02:28.24 = 6537384 samples = 11118 CDDA sectors
File Size : 5.93M
Bit Rate : 320k
Sample Encoding: MPEG audio (layer I, II or III)
Comments :
Title=America
Artist=Fatal Malady
Album=Burn
Tracknumber=2/10
Year=2018



[ Hidden Text ]
Andrew
[ Hidden Text ]
AHBAnep
Новая волна американского хэви... 13.gif
zauber1
ЦИТАТА(AHBAnep @ May 15 2018, 10:40:43) *
Новая волна американского хэви... 13.gif


Хм. Учитывая то, что у них и старая-то не особо и не всегда... В общем, печаль.
This is a "lo-fi" version of our main content. To view the full version with more information, formatting and images, please click here.
Invision Power Board © 2001-2018 Invision Power Services, Inc.