Help - Search - Members - Calendar
Full Version: Killborn - Theodicy [ep] (2018)
Metal Area - Extreme Music Portal > Releases Area / Релизы > Archive
necroscum


*Artist: Killborn
*Album: Theodicy [ep]
*Year: 2018
*Genre: Melodic Death Metal/Deathcore
*Country: Canada
*Format: mp3@CBR320kbps
*Size: 85MB

Tracklist:
01. Theodicy
02. Faint Whisper Of Goodbye
03. Wolves
04. La Violencia
05. Horns Of Salvation
06. Origins Of Order
07. 1968
******************************
Total playing time: 39:33





Technical info

Input File: 02. Faint Whisper of Goodbye.mp3
Channels : 2
Sample Rate : 44100
Precision : 16-bit
Duration : 00:05:08.85 = 13620329 samples = 23163.8 CDDA sectors
File Size : 12.5M
Bit Rate : 325k
Sample Encoding: MPEG audio (layer I, II or III)
Comments :
Title=Faint Whisper of Goodbye
Artist=Killborn
Album=Theodicy
Tracknumber=2/7
Year=2018
Genre=9
Discnumber=1/1



[ Hidden Text ]
fr47
не хрена не мелодик
zauber1
И ни хрена не дэт, если уж на то пошло.
This is a "lo-fi" version of our main content. To view the full version with more information, formatting and images, please click here.
Invision Power Board © 2001-2018 Invision Power Services, Inc.