Help - Search - Members - Calendar
Full Version: ApHelion - Opposites Rendered [ep] (2018)
Metal Area - Extreme Music Portal > Releases Area / Релизы > Archive
necroscum


*Artist: ApHelion
*Album: Opposites Rendered [ep]
*Year: 2018
*Genre: Melodic/Technical Death Metal
*Country: United States
*Format: mp3@CBR320kbps
*Size: 53MB

Tracklist:
01. Opposites Rendered 04:28
02. Apocrypha 04:16
03. Epithets For Canticles 04:36
04. Tortured Existence 04:46
05. Servants Of The Witch 04:22
******************************
Total playing time: 22:28





Technical info

Input File: 02. Apocrypha.mp3
Channels : 2
Sample Rate : 44100
Precision : 16-bit
Duration : 00:04:16.08 = 11292952 samples = 19205.7 CDDA sectors
File Size : 10.5M
Bit Rate : 329k
Sample Encoding: MPEG audio (layer I, II or III)
Comments :
Title=Apocrypha
Artist=ApHelion
Album=Opposites Rendered
Tracknumber=2
Year=2018



[ Hidden Text ]
Луч
Странно,что нет коментов. материал довольно не плох.
zauber1
Материал безликий, проходной и скучный. Одним словом - третьесорт.
This is a "lo-fi" version of our main content. To view the full version with more information, formatting and images, please click here.
Invision Power Board © 2001-2018 Invision Power Services, Inc.