Help - Search - Members - Calendar
Full Version: Deathtruck - Beyond The Void [ep] (2018)
Metal Area - Extreme Music Portal > Releases Area / Релизы > Archive
necroscum


*Artist: Deathtruck
*Album: Beyond The Void [ep]
*Year: 2018
*Genre: Melodic Death Metal
*Country: United States
*Format: mp3@CBR320kbps
*Size: 66MB

Tracklist:
01. Regeneration
02. Wasteland of the Dead
03. Descent
04. You're Not Alone
05. Falling Towards the Sun
06. Anubis
******************************
Total playing time: 28:53

Technical info

Input File: 02. Wasteland of the Dead.mp3
Channels : 2
Sample Rate : 44100
Precision : 16-bit
Duration : 00:03:25.03 = 9041867 samples = 15377.3 CDDA sectors
File Size : 8.20M
Bit Rate : 320k
Sample Encoding: MPEG audio (layer I, II or III)
Comments :
Title=Wasteland of the Dead
Artist=Deathtruck
Album=Beyond the Void
Tracknumber=2/6
Year=2018



[ Hidden Text ]
fr47
Где тут мелодик искать?
Andrew
https://www.youtube.com/watch?v=zxV8mFN5l5w...pqa&index=2

Мда....Даже малейших признаков на мелодез нет.
This is a "lo-fi" version of our main content. To view the full version with more information, formatting and images, please click here.
Invision Power Board © 2001-2019 Invision Power Services, Inc.