Help - Search - Members - Calendar
Full Version: Kárpátia - Isten Kegyelméből (2018)
Metal Area - Extreme Music Portal > Releases Area / Релизы > Archive
kostja


*Artist: Kárpátia
*Album: Isten Kegyelméből
*Year: 2018
*Genre: Folk Metal
*Country: Hungary
*Format: mp3@CBR320kbps
*Size: 74MB

Tracklist:
1. Férfiak Vagyunk 2:55
2. Költöző Madár 3:46
3. Eltéphetetlen Kötél 2:36
4. Csillagok, Harangok 3:26
5. Az Irredenta 3:00
6. Kontár Dal 3:13
7. Vén Bolond 3:41
8. Lakatlan Ház 3:16
9. Ezer Esztendeje Annak 2:34
10. Gulyás 3:12
******************************
Total playing time: 31:39

Technical info

Input File: 01 - Férfiak Vagyunk.mp3
Channels : 2
Sample Rate : 44100
Precision : 16-bit
Duration : 00:02:57.37 = 7821797 samples = 13302.4 CDDA sectors
File Size : 7.12M
Bit Rate : 321k
Sample Encoding: MPEG audio (layer I, II or III)
Comments :
Title=FГ©rfiak Vagyunk
Artist=KГЎrpГЎtia
Album=Isten Kegyelméböl
Tracknumber=1
Year=2018
Genre=Folk Metal



[ Hidden Text ]
kostja
Превью
Orkkh
если нужно кому:
RGhost
Mega.nz
This is a "lo-fi" version of our main content. To view the full version with more information, formatting and images, please click here.
Invision Power Board © 2001-2018 Invision Power Services, Inc.