Help - Search - Members - Calendar
Full Version: Nils Patrik Johansson - Evil De-Luxe (2018)
Metal Area - Extreme Music Portal > Releases Area / Релизы > New Releases
necroscum


*Artist: Nils Patrik Johansson
*Album: Evil De-Luxe
*Year: 2018
*Genre: Heavy Metal
*Country: Sweden
*Format: mp3@CBR320kbps
*Size: 136MB

Tracklist:
01. Baal 00:31
02. Evil Deluxe 03:58
03. Estonia 07:48
04. Gasoline 05:13
05. How The West Was Won 06:38
06. September Black 05:54
07. Kings And Queens 04:09
08. Burning 04:16
09. Metalhead 04:00
10. Circle In The Sky 04:53
11. Dark Evolution 04:38
12. A Waltz For Paris 05:32
******************************
Total playing time: 57:30




Technical info

Input File: 03. Estonia.mp3
Channels : 2
Sample Rate : 44100
Precision : 16-bit
Duration : 00:07:48.71 = 20669935 samples = 35153 CDDA sectors
File Size : 19.1M
Bit Rate : 327k
Sample Encoding: MPEG audio (layer I, II or III)
Comments :
Title=Estonia
Artist=Nils Patrik Johansson
Album=Evil Deluxe
Tracknumber=3/12
Year=2018
Genre=Metal
Discnumber=1/1



[ Hidden Text ]
vosmidesijatye
Дядя этот всегда рубил неоклассик шред, по крайней мере, на прошлых релизах. Не особо запоминающийся, не Мальм и не Стамп, конечно, но и не полный котяшок.
Samaritianin
[ Hidden Text ]
Cronopio
Thank you.
AHBAnep
ЦИТАТА(vosmidesijatye @ May 24 2018, 14:48:32) *
Дядя этот всегда рубил неоклассик шред, по крайней мере, на прошлых релизах. Не особо запоминающийся, не Мальм и не Стамп, конечно, но и не полный котяшок.

Дядя этот - вокалист 1488.gif
Надеюсь, шредить голосом не начал...
Darkness
Весьма неплохо.Шреда нет, но помпезность и отличный хэви есть.Смесь Мановар и Сабатон.Плюс Хава Нагила в металле это нечто.


Tular
ЦИТАТА(AHBAnep @ 25th May 2018 - 12:10:47) *
Надеюсь, шредить голосом не начал...

Языком.

Darkness, спасибо за превью, так бы мимо прошел. Веселая песенка.
Illogicist
В отсутствии Wuthering Heights и Lion's Share пойдёт. Ближе всего к Сивил Вору, наверное.
zauber1
Ну зато Хаву наглилу услышал первый раз в метал-версии. 1488.gif

Но на самом деле говно какое-то вышло. Пару треков весёленьких, остальное какой-то дикий проходняк.
This is a "lo-fi" version of our main content. To view the full version with more information, formatting and images, please click here.
Invision Power Board © 2001-2018 Invision Power Services, Inc.