Help - Search - Members - Calendar
Full Version: Light This City - Terminal Bloom (2018)
Metal Area - Extreme Music Portal > Releases Area / Релизы > Archive
necroscum


*Artist: Light This City
*Album: Terminal Bloom
*Year: 2018
*Genre: Melodic Death Metal
*Country: United States
*Format: mp3@CBR320kbps
*Size: 74MB

Tracklist:
01. Reality In Disarray 04:24
02. A Grotesque Reflection 03:28
03. Dormant Tide 03:19
04. Terminal Bloom 03:58
05. Death Downwind 01:25
06. Agents Of Fate 03:35
07. Extinguished 02:21
08. The Wake Of My Will 03:43
09. Neverlanding 03:01
10. Wildheart 03:08
******************************
Total playing time: 32:22






Technical info

Input File: 02. A Grotesque Reflection.mp3
Channels : 2
Sample Rate : 44100
Precision : 16-bit
Duration : 00:03:28.95 = 9214695 samples = 15671.2 CDDA sectors
File Size : 8.36M
Bit Rate : 320k
Sample Encoding: MPEG audio (layer I, II or III)
Comments :
Title=A Grotesque Reflection
Artist=Light This City
Album=Terminal Bloom
Tracknumber=2/10
Year=2018
Discnumber=1/1



[ Hidden Text ]
Samaritianin
[ Hidden Text ]
Jahmephisto
Весьма неплохо.
defamer666

Бабёнку гнать нужно за такую ПИСЬкотню 22.gif
Andrew


ЦИТАТА(necroscum @ May 24 2018, 16:01:46) *
*Genre: Melodic Death Metal


Шо, серьезно??? Всю дорогу металкоровщиной были, а тут МДМ в чистом виде?
vosmidesijatye
ЦИТАТА(Andrew @ May 25 2018, 00:43:24) *

Шо, серьезно??? Всю дорогу металкоровщиной были, а тут МДМ в чистом виде?


Только хотел написать то же самое. От бывших корщиков хорошего не жди 1488.gif
Andrew
Да и очень мало америкосовских команд, которые играют именно мелодез.
Обязательно "в нагрузку" с чем то 1488.gif
Jahmephisto
Однако на этот раз это всё таки MDM и кстати своей прямотой и напором очень напоминает Arch Enemy времён Johan Liiva, но только напором и энергетикой. А в целом конечно же им не хватает высококвалифицированного соло-гитариста, однако за дисциплину и собранность им пятёрочка по пятибальной шкале, для бывшего металкор коллектива здорово преобразились в лучшую сторону, молодцы.
Thiarnan
ЦИТАТА(Andrew @ 24th May 2018 - 22:43:24) *
Шо, серьезно??? Всю дорогу металкоровщиной были, а тут МДМ в чистом виде?

23.gif На 2006 и 2008 кора было минимум.
isvili
ЦИТАТА(Thiarnan @ May 25 2018, 09:38:49) *
23.gif На 2006 и 2008 кора было минимум.
Абсолютно согласен.
DenisKov
Раньше их альбомы можно было даже переслушать на раз два, сейчас же не осилил до конца, по мне так регресс.
vosmidesijatye
Третьесорт, подтверждаю. Команда продуктивная по количеству выпускаемого, но от раза в раз как все хужее и хужее.
Disillusion
Мелодэт без всяких сомнений. Учитывая кризис жанра то всё достаточно не плохо, во всяком случае лучше последних Arch Enemy и иже с ними.
vosmidesijatye
ЦИТАТА(Disillusion @ May 26 2018, 12:11:52) *
Мелодэт без всяких сомнений. Учитывая кризис жанра то всё достаточно не плохо, во всяком случае лучше последних Arch Enemy и иже с ними.


А с чего ты взял что в мдм щас кризис?
zauber1
Мутная работа. Вокал не понравился, работа со звуком тоже не особо. Интересные мелодии изредка проблесками. Короче, очень и очень слабо, нравиться тут нечему.
This is a "lo-fi" version of our main content. To view the full version with more information, formatting and images, please click here.
Invision Power Board © 2001-2018 Invision Power Services, Inc.