Help - Search - Members - Calendar
Full Version: Bleeding Through - Love Will Kill All (2018)
Metal Area - Extreme Music Portal > Releases Area / Релизы > Archive
Necrokilldozer


*Artist: Bleeding Through
*Album: Love Will Kill All
*Year: 2018
*Genre: Metalcore
*Country: United States
*Format: mp3@CBR320kbps
*Size: 87MB

Tracklist:
1. Darkness, A Feeling I Know 01:21
2. Fade Into The Ash 03:25
3. End Us 03:25
4. Cold World 03:03
5. Dead Eyes 03:13
6. Buried 02:54
7. No Friends 03:17
8. Set Me Free 03:35
9. No One From No Where 02:35
10. Remains 03:50
11. Slave 02:19
12. Life 04:02
******************************
Total playing time: 36:59



Twitter

Extended info
web flac rip

Line - up:

Brandan Schieppati - Vocals (Sorrows, Suffer Well, The Iron Son, ex-Throwdown, ex-Die Die My Darling, ex-Eighteen Visions, ex-I Am War, ex-The Innocent, ex-The Mistake)
Ryan Wombacher - Bass (ex-Devil You Know, Light the Torch)
Derek Youngsma - Drums (ex-Cast in Stone)
Brian "Lefty" Leppke - Guitars (Day of Contempt)
Marta Peterson - Keyboards





Technical info

Input File: 01. Darkness, A Feeling I Know.mp3
Channels : 2
Sample Rate : 48000
Precision : 16-bit
Duration : 00:01:21.31 = 3903120 samples ~ 6098.62 CDDA sectors
File Size : 3.26M
Bit Rate : 320k
Sample Encoding: MPEG audio (layer I, II or III)
Comments :
Title=Darkness, A Feeling I Know
Artist=Bleeding Through
Album=Love Will Kill All
Tracknumber=1
Year=2018
Genre=Metalcore



[ Hidden Text ]
DenisKov
Определенно лучше последнего, но по прежнему ничего особенного, был ли смысл возвращаться спустя столько лет.
6666666
ЦИТАТА(DenisKov @ 26th May 2018 - 14:23:22) *
Определенно лучше последнего

Лучше лучшего их альбома? Хотя, я всё равно собирался проверить, пошли ли 6 лет перерыва им на пользу. Превьюшные треки назову просто нормальными.

А, да, Самаритянин, или кто там недалеко, можно на Мыло перелить?
Andrew
[ Hidden Text ]
6666666
Благодарю.
6666666
После одного раза как-то совсем топорно-тупорыло даже для них, и симфо-блэковость заметно сдала, что вот прямо совсем печальная грусть. Очевидно слабее прошлого, но у половины песен есть потенциал для раскрытия, поэтому не сдаёмся.
6666666
ЦИТАТА
2. Fade Into The Ash 03:25
4. Cold World 03:03
6. Buried 02:54
8. Set Me Free


Вот это - хорошо. Остальное нужно постольку-поскольку, а припевы здесь почти везде просто оскорбительные. Денков неправ, это очень далеко от прошлого.
sadmannn
Альбом, как по мне, лучший в дискографии
6666666
В итоге, скорее плохо, чем хорошо. Намного хуже прошлого.
This is a "lo-fi" version of our main content. To view the full version with more information, formatting and images, please click here.
Invision Power Board © 2001-2018 Invision Power Services, Inc.