Help - Search - Members - Calendar
Full Version: Earth Eater - Oblivion [ep] (2018)
Metal Area - Extreme Music Portal > Releases Area / Релизы > Archive
necroscum


*Artist: Earth Eater
*Album: Oblivion [ep]
*Year: 2018
*Genre: Technical Deathcore
*Country: United States
*Format: mp3@CBR320kbps
*Size: 100MB

Tracklist:
01. State Of Enmity
02. Guardian
03. Black Widow
04. Despair
05. Lost
06. State Of Enmity (Instrumental)
07. Guardian (Instrumental)
08. Black Widow (Instrumental)
09. Despair (Instrumental)
10. Lost (Instrumental)
******************************
Total playing time: 44:02



Technical info

Input File: 02. Guardian.mp3
Channels : 2
Sample Rate : 44100
Precision : 16-bit
Duration : 00:04:36.17 = 12179053 samples = 20712.7 CDDA sectors
File Size : 11.0M
Bit Rate : 320k
Sample Encoding: MPEG audio (layer I, II or III)
Comments :
Title=Guardian
Artist=Earth Eater
Album=Oblivion
Tracknumber=2/10
Year=2018



[ Hidden Text ]
Gazzzooo
как в песне группы Ленингард
"...но вот что то вот все не то, а и не понятно что..."
This is a "lo-fi" version of our main content. To view the full version with more information, formatting and images, please click here.
Invision Power Board © 2001-2018 Invision Power Services, Inc.