Help - Search - Members - Calendar
Full Version: Gaupa - Gaupa [ep] (2018)
Metal Area - Extreme Music Portal > Releases Area / Релизы > Archive
vosmidesijatye


*Artist: Gaupa
*Album: Gaupa [ep]
*Year: 2018
*Genre: Heavy/Stoner/Doom Metal
*Country: Sweden
*Format: mp3@CBR320kbps
*Size: 64MB

Tracklist:
01. Febersvan 07:27
02. The Drunk Autopussy Wants To Fight You 03:04
03. Kartan 05:54
04. Gryt 04:08
05. Bergatroll 07:29
******************************
Total playing time: 28:02

Preview 1

Technical info

Input File: 01 Febersvan.mp3
Channels : 2
Sample Rate : 44100
Precision : 16-bit
Duration : 00:07:27.81 = 19748245 samples = 33585.5 CDDA sectors
File Size : 18.2M
Bit Rate : 326k
Sample Encoding: MPEG audio (layer I, II or III)
Comments :
Title=Febersvan
Artist=Gaupa
Album=GAUPA
Tracknumber=1
Year=2018
Genre= Rock



[ Hidden Text ]
vosmidesijatye
@320

[ Hidden Text ]
Zhelezjaka
Re-up. dooo.gif
Borderline1991
[ Hidden Text ]
This is a "lo-fi" version of our main content. To view the full version with more information, formatting and images, please click here.
Invision Power Board © 2001-2020 Invision Power Services, Inc.