Help - Search - Members - Calendar
Full Version: Aparia - Beyond The Walls Of Man (2018)
Metal Area - Extreme Music Portal > Releases Area / Релизы > Archive
necroscum


*Artist: Aparia
*Album: Beyond The Walls Of Man
*Year: 2018
*Genre: Melodic/Technical Death Metal
*Country: United States
*Format: mp3@CBR320kbps
*Size: 83MB

Tracklist:
01. Theology of Suffering
02. Chamber of Pantology
03. Aparia
04. Possessive Complex
05. Cosmos Esthetos
06. Descent of Apareon
07. Instrumental
08. Ascending
******************************
Total playing time: 36:16




Technical info

Input File: 02. Chamber of Pantology.mp3
Channels : 2
Sample Rate : 44100
Precision : 16-bit
Duration : 00:04:49.00 = 12744724 samples = 21674.7 CDDA sectors
File Size : 11.6M
Bit Rate : 320k
Sample Encoding: MPEG audio (layer I, II or III)
Comments :
Title=Chamber of Pantology
Artist=Aparia
Album=Beyond the Walls of Man
Tracknumber=2/8
Year=2018



[ Hidden Text ]
Samaritianin
[ Hidden Text ]
AHBAnep
Равнение на Обскуру, Зе Фэйслес, Некрофагиста. Первые треки заходят хорошо.
Правильной дорогой идёте, товарищи!
krotovich
ЦИТАТА(AHBAnep @ 7th June 2018 - 07:23:08) *
Правильной дорогой идёте, товарищи!

Клоун ?
babanguida
Some day we'll have to stop using the word technical to name a genre alkash.gif
Andrew
На Бэндкампе - одно лишь интро...

https://www.youtube.com/watch?v=I-50GvpkccE APARIA - Chamber Of Pantology
babanguida
this hideous cover and purple and green logo... music is the only important thing but why shooting a bullet in your own feet like this?
avkruchinin
ЦИТАТА(krotovich @ Jun 7 2018, 12:13:47) *
Клоун ?

А правильной дорогой ходят только клоуны?
Visitor
20.gif Не такой уж и мелодик! metaler.gif
MMMMM
Wicked. Love this stuff. LC, ex-Faceless, drumming on this one: killer drumming and wicked drumming. Thanks. smile1.gif
DenisKov
ЦИТАТА(Andrew @ Jun 7 2018, 17:15:19) *
https://www.youtube.com/watch?v=I-50GvpkccE APARIA - Chamber Of Pantology


Безыдейно все, скучно, хотя барабанщик хорошо лупит, правда эта долбежка за минут 15 наверно надоест, я только превью ограничился.
Язва
ЦИТАТА(AHBAnep @ Jun 7 2018, 09:23:08) *
Равнение на Обскуру, Зе Фэйслес, Некрофагиста. Первые треки заходят хорошо.
Правильной дорогой идёте, товарищи!

Абсолютно верное направление!
Наконец-то среди череды однообразных и похожих друг на друга ровных альбомов попалась маленькая жемчужина, достойная включения в личный топ-2018 по техно-дэту.
Слушать всем.
9/10
rammstein888
Обложка альбома очень специфическая, а вот музыка не подкачала. Напомнили мне Lost Soul - Atlantis - The New Beginning, а это мой любимый альбом у Lost Soul.
Обзавелся лосем.
Альбом благополучно осел в моей коллекции.
This is a "lo-fi" version of our main content. To view the full version with more information, formatting and images, please click here.
Invision Power Board © 2001-2018 Invision Power Services, Inc.