Help - Search - Members - Calendar
Full Version: Zeroed - War Of Liberation (2003)
Metal Area - Extreme Music Portal > Releases Area / Релизы > New Releases > Low Bitrate
Proteus_666


*Artist: Zeroed
*Album: War Of Liberation
*Year: 2003
*Genre: Death Metal
*Country: Germany
*Format: mp3@CBR192kbps
*Size: 39MB

Tracklist:
1. Invocation / Black Song 04:54
2. Revenge 03:52
3. Zombie Carrots Gone Berzerk 01:06
4. Erde Ruft 06:42
5. Mostly Harmless 01:02
6. War Of Liberation 03:33
7. 7th Plague 03:27
8. Zenized / Hidden Track 04:40
******************************
Total playing time: 29:16

Extended info
Recorded by JZ & Zeroed @ Surtr Studio, Bochum-Dahhausen.
Mixed & mastered by JZ.


Technical info

Input File: 02-Revenge.mp3
Channels : 2
Sample Rate : 44100
Precision : 16-bit
Duration : 00:00:55.91 = 2465631 samples = 4193.25 CDDA sectors
File Size : 1.34M
Bit Rate : 192k
Sample Encoding: MPEG audio (layer I, II or III)
Comments :
Title=Revenge
Artist=Zeroed (Ger)
Album=War of Liberation
Tracknumber=02
Year=2003
Genre=Death Metal



[ Hidden Text ]
beast666
Герб
На яндекс или ргхост залейте,пожалуйста.
This is a "lo-fi" version of our main content. To view the full version with more information, formatting and images, please click here.
Invision Power Board © 2001-2019 Invision Power Services, Inc.