Help - Search - Members - Calendar
Full Version: Wømb - Taciturn [ep] (2018)
Metal Area - Extreme Music Portal > Releases Area / Релизы > Archive
LazarShadow


*Artist: Wømb
*Album: Taciturn [ep]
*Year: 2018
*Genre: Black Metal
*Country: Portugal
*Format: mp3@CBR320kbps
*Size: 37MB

Tracklist:
1. He is the Preacher of the Gods 01:49
2. In the Abyss of this Darkness in which the Spirit has Died to Itself 01:56
3. Nychthemeral 01:46
4. Master/Slave 01:05
5. Ritual Union Through Sex Magick 03:00
6. Hic Est Sanguis Meus 01:57
7. Ekénōsen 02:35
******************************
Total playing time: 14:08

Technical info

Input File: 01 - Wømb - He is the Preacher of the Gods.mp3
Channels : 2
Sample Rate : 44100
Precision : 16-bit
Duration : 00:01:49.02 = 4807870 samples = 8176.65 CDDA sectors
File Size : 4.44M
Bit Rate : 326k
Sample Encoding: MPEG audio (layer I, II or III)
Comments :
Title=01 - WГёmb - He is the Preacher of the Gods
Artist=WГёmb
Album=Taciturn
Tracknumber=1
Year=2017



[ Hidden Text ]
Hell_Is_Here
Storky
full
LazarShadow
The download I provided is full EP. There is no mistake.
This is a "lo-fi" version of our main content. To view the full version with more information, formatting and images, please click here.
Invision Power Board © 2001-2018 Invision Power Services, Inc.