*Artist: Violet Cold
*Album: Sommermorgen Pt. I Innocence
*Year: 2018
*Genre: Atmospheric/Post-Black Metal
*Country: Azerbaijan
*Format: mp3@CBR320kbps
*Size: 91MB

Tracklist:
01. Unschuld 05:08
02. Ein Langer Weg 05:32
03. Life In Moments 04:28
04. Luftschloss 05:09
05. Perception 01:28
06. Fernweh 04:37
07. Nur Die Sonne War Zeuge 02:20
08. Schläfrig 02:39
09. Bring Mich Nach Hause 03:56
10. Geborgenheit 02:37
******************************
Total playing time: 37:54



Technical info

Input File: 02. Ein Langer Weg.mp3
Channels : 2
Sample Rate : 44100
Precision : 16-bit
Duration : 00:05:32.13 = 14646845 samples = 24909.6 CDDA sectors
File Size : 13.3M
Bit Rate : 320k
Sample Encoding: MPEG audio (layer I, II or III)
Comments :
Title=Ein Langer Weg
Artist=Violet Cold
Album=Sommermorgen, Pt. I: Innocence
Tracknumber=2/11
Year=2018



[ Hidden Text ]