Help - Search - Members - Calendar
Full Version: Ered Amlug - Satan Will Collect (2018)
Metal Area - Extreme Music Portal > Releases Area / Релизы > Archive
Samaritianin


*Artist: Ered Amlug
*Album: Satan Will Collect
*Year: 2018
*Genre: Melodic Black Metal
*Country: Japan
*Format: mp3@CBR320kbps
*Size: 106MB

Tracklist:
01. Nillin 04:16
02. Gallows 04:44
03. Black Lives Matter 05:10
04. Shadow of Death 05:15
05. Satan Will Collect 05:38
06. Hallel 06:40
07. Balota Og Afar 08:39
08. God Emperor 04:42
******************************
Total playing time: 45:04



Extended info


Technical info

Input File: 02 Gallows.mp3
Channels : 2
Sample Rate : 44100
Precision : 16-bit
Duration : 00:04:44.06 = 12527002 samples = 21304.4 CDDA sectors
File Size : 11.7M
Bit Rate : 329k
Sample Encoding: MPEG audio (layer I, II or III)
Comments :
Title=Gallows
Artist=Ered Amlug
Album=Satan Will Collect
Tracknumber=2/8
Year=2018
Genre=Black Metal
Discnumber=1/1



[ Hidden Text ]
Samaritianin
[ Hidden Text ]
isvili
Зачем вообще такое петь? Не понятно.
vosmidesijatye
ЦИТАТА(isvili @ Jun 15 2018, 13:59:12) *
Зачем вообще такое петь? Не понятно.


Ну так они даже название альбома безграмотно написали. Что будет коллекционировать Сатана? 1488.gif

Такие ошибки нашим еще относительно простительны...
randyhermit
ЦИТАТА(vosmidesijatye @ Jun 15 2018, 13:01:24) *
Что будет коллекционировать Сатана? 1488.gif

таких, как ты
This is a "lo-fi" version of our main content. To view the full version with more information, formatting and images, please click here.
Invision Power Board © 2001-2018 Invision Power Services, Inc.