Help - Search - Members - Calendar
Full Version: Blood Stain Child - The Legend [best of/compilation] (2018)
Metal Area - Extreme Music Portal > Releases Area / Релизы > New Releases
Lucifer


*Artist: Blood Stain Child
*Album: The Legend [best of/compilation]
*Year: 2018
*Genre: Melodic Death Metal/Trance
*Country: Japan
*Format: mp3@CBR320kbps
*Size: 127MB

Tracklist:
1. KAMUI -神威-
2. Silence Of Northern Hell 〜0〜
3. Crimson Symphony 〜rage of blood〜
4. Requiem 〜T.O.A〜
5. Mystic Your Heart 〜angel in the karma〜
6. ∞SYSTEM 〜b.u.r.s.t〜
7. CLONE LIFE 〜anti-human〜
8. Final Sky 〜terra〜
9. Embrace Me 〜you are not alone〜
10. TRUTH 〜psyco society〜
11. Exotic-6-cordinator 〜novum〜
12. FREEDOM 〜ryu in the house〜
13. Another Dimension 〜shiro gane〜
14. Forever Free 〜焔〜
15. ETERNAL proto-type (Bonus)
******************************
Total playing time: 1:00:24




Extended info
Сборник перезаписанных и переаранжированных песен со всей дискографии. В работе над пластинкой приняли участие многие из бывших членов группы.

Состав:
Saika - вокал (1-10,12-15)
Ryu - гитара
G.S.R. - гитара
Yakky - бас
Yasu - барабаны (1,2,3,4,8,15)
+
Aki - клавишные, электроника (студийный участник)
Ryo - вокал (2,3,4,7,10,11,13,15 )
Sadew - вокал (3,4,5,6,9,11,13,14,15)
Kiki - вокал (12,14 )
Gami - барабаны (5,6,7,14)
Violator - барабаны (9,10,11,12,13)


Technical info

Input File: 06. ∞System.mp3
Channels : 2
Sample Rate : 44100
Precision : 16-bit
Duration : 00:02:52.04 = 7586744 samples = 12902.6 CDDA sectors
File Size : 6.88M
Bit Rate : 320k
Sample Encoding: MPEG audio (layer I, II or III)
Comments :
Title=в€ћSYSTEM гЂњb.u.r.s.tгЂњ
Artist=Blood Stain Child
Album=The Legend
Tracknumber=06/15
Year=2018
Genre=Metal
Discnumber=1/1



[ Hidden Text ]
Dreamtale
Плохие ремиксы, нирикамендую.
babanguida
Melodic Death Metal/Trance hmm.gif alkash.gif
DenisKov
Оригиналы не помню, но релиз дослушал фоном до середины, вокалы быстро надоедают.
This is a "lo-fi" version of our main content. To view the full version with more information, formatting and images, please click here.
Invision Power Board © 2001-2018 Invision Power Services, Inc.