Help - Search - Members - Calendar
Full Version: Yuzukingdom - Genesis (2018)
Metal Area - Extreme Music Portal > Releases Area / Релизы > Archive
Lucifer


*Artist: Yuzukingdom
*Album: Genesis
*Year: 2018
*Genre: Melodic Death/Power Metal
*Country: Japan
*Format: mp3@CBR320kbps
*Size: 96MB

Tracklist:
1. Gate of the Kingdom
2. Trauma
3. Eyes Shut Tightly
4. National Anthem
5. Bleeding
6. Roskill Lavender
7. Plastic Smile
8. Wide Eyed Dreamer
9. Empty Hours
10. Evil Game
11. We All Fight to Live
******************************
Total playing time: 41:11





Extended info
Дебютный альбом. В состав YUZUKINGDOM входит весь современный состав Blood Stain Child, плюс вокалистка Yuzuki (Q'ulle).

Yuzuki - вокал, автор тестов
Ryu - гитара, автор музыки
Saika - вокал
G.S.R. - гитара
Yakky - бас
Yasu - барабаны


Technical info

Input File: 01. Gate of the Kingdom.mp3
Channels : 2
Sample Rate : 44100
Precision : 16-bit
Duration : 00:01:48.58 = 4788290 samples = 8143.35 CDDA sectors
File Size : 4.39M
Bit Rate : 323k
Sample Encoding: MPEG audio (layer I, II or III)
Comments :
Title=Gate of the Kingdom
Artist=Yuzukingdom
Album=Genesis
Tracknumber=1/11
Year=2018
Genre=Metal
Discnumber=1/1



[ Hidden Text ]
Andrew
[ Hidden Text ]
AHBAnep
Да, вот эта "плюс вокалистка" для меня несъедобна.. да и Blood Stain Child давно уже отстойная банда.
DenisKov
Господе что же за дерьмо...Надо быть реально больным, чтобы это нравилось.
zauber1
Обычный мелодэт. Выходит, он только больным нравится?
Lucifer
ЦИТАТА(zauber1 @ 20th June 2018 - 03:12:31) *
Обычный мелодэт.

Не совсем обычный, присутствует изрядная доля хардкор/металкоровых рваных рифов. Местами слышатся отголоски павера (National Anthem) и джей-попа (Bleeding, Empty Hours). Сам мелодет идет как основа, его в альбоме по ощущениям около 70%.
В целом, крепкий экспериментальный релиз, очень понравились жирные гитары и то, как органично в песнях сочетаются куски с полной экстремальщиной, так и вполне спокойные места, да еще и хитово всё это дело звучит, ибо материал довольно разнообраный и запоминающийся.

Из аналогий на ум приходят Maximum The Hormone (те же составляющие, только в других пропорциях), да Blood Stain Child образца "Last Stardust" (только без обильной электронщины и с поправкой на других вокалистов).

Я даже не знаю кем нужно быть, чтобы такой любопытный альбом дерьмом поливать. Либо закостенелым противником любых экспериментов и смешивания жанров, либо не переваривать чистый японский вокал (такие персонажи обычно клеймят тегом "фуаниме"). Остальных альбом может порадовать.
DenisKov
Очевидно вы не прикидываетесь...Я думал любому кто это включит станет противно от вокала.
PS Анимэ мне кстати то же не нравится своей рисовкой, но за то чтобы его вообще не существовало я никогда не агитировал. Смотрите на здоровье.
This is a "lo-fi" version of our main content. To view the full version with more information, formatting and images, please click here.
Invision Power Board © 2001-2018 Invision Power Services, Inc.