Help - Search - Members - Calendar
Full Version: End Of Reign - Into The Ocean (2018)
Metal Area - Extreme Music Portal > Releases Area / Релизы > Archive
Samaritianin


*Artist: End Of Reign
*Album: Into The Ocean
*Year: 2018
*Genre: Heavy/Thrash Metal
*Country: Germany
*Format: mp3@CBR320kbps
*Size: 89MB

Tracklist:
1. Abandoned Ship
2. Searching For You
3. Escape The Strife
4. Forsaken
5. Into The Ocean
6. Thrown For Deliverance
7. Blinded
8. Worst Nightmare
9. In My Arms
10. Empty Memories
11. Triumph Of Reign
******************************
Total playing time: 34:48



Technical info

Input File: 02 Searching for You.mp3
Channels : 2
Sample Rate : 44100
Precision : 16-bit
Duration : 00:03:49.09 = 10102957 samples = 17181.9 CDDA sectors
File Size : 9.86M
Bit Rate : 344k
Sample Encoding: MPEG audio (layer I, II or III)
Comments :
Title=Searching for You
Artist=End of Reign
Album=Into the Ocean
Tracknumber=2/11
Year=2018
Genre=Thrash Metal
Discnumber=1/1



[ Hidden Text ]
Samaritianin
[ Hidden Text ]
AHBAnep
Уныло до безобразия.. Вокал(ы) чистый и харш - паршивые.
This is a "lo-fi" version of our main content. To view the full version with more information, formatting and images, please click here.
Invision Power Board © 2001-2018 Invision Power Services, Inc.