Help - Search - Members - Calendar
Full Version: Cruel Master - Demo V [demo] (2018)
Metal Area - Extreme Music Portal > Releases Area / Релизы > New Releases
smysl


*Artist: Cruel Master
*Album: Demo V [demo]
*Year: 2018
*Genre: Black Metal/Punk
*Country: United States
*Format: mp3@CBR320kbps
*Size: 46MB

Tracklist:
1.Lecherous 02:58
2.Naked & Bleeding 03:56
3.Tortuous Death 03:19
4.Your Sacrifice 02:19
5.Depopulate 03:20
6.Become Nothing 03:55
******************************
Total playing time: 19:47



Technical info

Input File: 01 Lecherous.mp3
Channels : 2
Sample Rate : 44100
Precision : 16-bit
Duration : 00:02:58.67 = 7879391 samples = 13400.3 CDDA sectors
File Size : 7.18M
Bit Rate : 322k
Sample Encoding: MPEG audio (layer I, II or III)
Comments :
Title=Lecherous
Artist=Cruel Master
Album=Demo V
Tracknumber=1
Year=2018
Genre=Black Metal



[ Hidden Text ]
RUSP73
Одна из немногих штатовских команд действительно клёво играющих в ключе Ildjarn'а
This is a "lo-fi" version of our main content. To view the full version with more information, formatting and images, please click here.
Invision Power Board © 2001-2018 Invision Power Services, Inc.