Help - Search - Members - Calendar
Full Version: In Snakes I Bathe - Ha Ha Michael Keene Got Addicted To Heroin [ep] (2018)
Metal Area - Extreme Music Portal > Releases Area / Релизы > New Releases
necroscum


*Artist: In Snakes I Bathe
*Album: Ha Ha Michael Keene Got Addicted To Heroin [ep]
*Year: 2018
*Genre: Grindcore
*Country: United Kingdom
*Format: mp3@CBR320kbps
*Size: 2MB

Tracklist:
01. Ha Ha Michael Keene Got Addicted To Heroin 00:17
02. Ha Ha Michael Keene Got Addicted To Heroin (Instrumental) 00:12
03. I Hate East Ayrshire Council 00:10
******************************
Total playing time: 0:39





Technical info

Input File: 03. I Hate East Ayrshire Council.mp3
Channels : 2
Sample Rate : 44100
Precision : 16-bit
Duration : 00:00:10.03 = 442367 samples = 752.325 CDDA sectors
File Size : 495k
Bit Rate : 395k
Sample Encoding: MPEG audio (layer I, II or III)
Comments :
Title=I Hate East Ayrshire Council
Artist=In Snakes I Bathe
Album=Ha Ha Michael Keene Got Addicted to Heroin
Tracknumber=3
Year=2018



[ Hidden Text ]
babanguida
very interesting
This is a "lo-fi" version of our main content. To view the full version with more information, formatting and images, please click here.
Invision Power Board © 2001-2018 Invision Power Services, Inc.