*Artist: Dos Brujos
*Album: Gates Of Guinee [ep]
*Year: 2017
*Genre: Instrumental Sludge/Doom Metal
*Country: Austria
*Format: mp3@CBR320kbps
*Size: 97MB

Tracklist:
01. Seven Nights 09:50
02. Seven Moons 07:15
03. Seven Gates 05:49
04. Seven Tombs 05:25
05. Papa Legba 14:07
******************************
Total playing time: 42:26





Technical info

Input File: 02. Seven Moons.mp3
Channels : 2
Sample Rate : 44100
Precision : 16-bit
Duration : 00:07:16.00 = 19227512 samples = 32699.9 CDDA sectors
File Size : 17.5M
Bit Rate : 321k
Sample Encoding: MPEG audio (layer I, II or III)
Comments :
Title=Seven Moons
Artist=Dos Brujos
Album=Gates of Guinee
Tracknumber=2
Year=2017



[ Hidden Text ]