Help - Search - Members - Calendar
Full Version: Illness - Trvmna [ep] (2015)
Metal Area - Extreme Music Portal > Releases Area / Релизы > Archive
smysl


*Artist: Illness
*Album: Trvmna [ep]
*Year: 2015
*Genre: Black Metal
*Country: International
*Format: mp3@CBR320kbps
*Size: 64MB

Tracklist:
1. Intro 02:11
2. Trvmna 03:18
3. Dødskyggen 06:06
4. The Kingdom Comes (Mysticum cover) 04:53
5. Grobowa Mgła 03:42
6. Cranium 03:59
******************************
Total playing time: 24:09




Extended info
International project (Norway/Poland)
CD, Metallic Media/Black Plague Records
+ scans


Technical info

Input File: 02 Trvmna.mp3
Channels : 2
Sample Rate : 44100
Precision : 16-bit
Duration : 00:03:19.89 = 8815237 samples = 14991.9 CDDA sectors
File Size : 8.00M
Bit Rate : 320k
Sample Encoding: MPEG audio (layer I, II or III)
Comments :
Title=Trvmna
Artist=Illness
Album=Trvmna
Tracknumber=2
Year=2015
Genre=Black Metal



[ Hidden Text ]
RUSP73
Никакой особой Норвегии здесь нет, все поляки, тока один переехал в Норвегию...по музыке средненько
vosmidesijatye
ЦИТАТА(RUSP73 @ Jun 15 2018, 11:54:48) *
Никакой особой Норвегии здесь нет, все поляки, тока один переехал в Норвегию...по музыке средненько


Так тру норвежсий бм уже давно исчез, еще в середине 90-х. 25.gif
This is a "lo-fi" version of our main content. To view the full version with more information, formatting and images, please click here.
Invision Power Board © 2001-2018 Invision Power Services, Inc.