*Artist: Dos Brujos
*Album: Fuck Off And Jam! Volume II [ep]
*Year: 2017
*Genre: Instrumental Sludge/Doom Metal
*Country: Austria
*Format: mp3@CBR320kbps
*Size: 120MB

Tracklist:
01. La Tierra De Los Muertos 11:27
02. The Skull 19:10
03. Samshan Ka Raja 21:12
******************************
Total playing time: 51:49





Technical info

Input File: 02. The Skull.mp3
Channels : 2
Sample Rate : 44100
Precision : 16-bit
Duration : 00:19:10.67 = 50744591 samples = 86300.3 CDDA sectors
File Size : 46.2M
Bit Rate : 321k
Sample Encoding: MPEG audio (layer I, II or III)
Comments :
Title=The Skull
Artist=Dos Brujos
Album=Fuck Off and Jam! Volume II
Tracknumber=2
Year=2017



[ Hidden Text ]