Help - Search - Members - Calendar
Full Version: A Sound Of Thunder - It Was Metal (2018)
Metal Area - Extreme Music Portal > Releases Area / Релизы > Archive
Samaritianin


*Artist: A Sound Of Thunder
*Album: It Was Metal
*Year: 2018
*Genre: Heavy/Power Metal
*Country: United States
*Format: mp3@CBR320kbps
*Size: 132MB

Tracklist:
1. Phantom Flight 05:27
2. Lifebringer 05:37
3. Atlacatl 05:13
4. The Crossroads Deal 01:10 instrumental
5. It Was Metal 04:34
6. Obsidian & Gold (Desdinova Returns) 09:35
7. Second Lives 05:27
8. Els Segadors (The Reapers) 04:10
9. Tomyris 07:22
10. Charles II 04:30
11. Fortress of the Future Race 04:58
******************************
Total playing time: 58:03




Extended info
Chris Haren Drums
Josh Schwartz Guitars
Nina Osegueda Vocals
Jesse Keen Bass, Keyboards


Technical info

Input File: 03 - Atlacatl.mp3
Channels : 2
Sample Rate : 44100
Precision : 16-bit
Duration : 00:05:13.45 = 13823101 samples = 23508.7 CDDA sectors
File Size : 12.5M
Bit Rate : 320k
Sample Encoding: MPEG audio (layer I, II or III)
Comments :
Title=Atlacatl
Artist=A Sound of Thunder
Album=It Was Metal
Tracknumber=3
Year=2018
Genre=Heavy Metal



[ Hidden Text ]
Samaritianin
[ Hidden Text ]
Andrew
Yarri
Проходняк, походу.
zauber1
Вокал Nina Osegueda очень мне напомнил таковой у Brittney Hayes из Unleash The Archers. Это круто, потому что мне очень нравится как поёт Бриттни. Более того, мне понравилось и то, как поёт Нина. Но инструментальный материал блёклый и аляпистый. Вроде, всё неплохо и откровенно топорным его не назвать, но вкусной мелодики нет от слова "совсем". Не хватило сонграйтерского мастерства, видимо, хотя для группы с десятилетней историей это вряд ли отговорка.

На пластинке есть только один реально крутой и сильный трек: Els Segadors (The Reapers). Остальное, конечно, не проходняк, но и не то, что с удовольствием переслушивают раз за разом. Впрочем, для американской банды такая музыка в данном жанре уже сама по себе прыжок выше головы.
This is a "lo-fi" version of our main content. To view the full version with more information, formatting and images, please click here.
Invision Power Board © 2001-2018 Invision Power Services, Inc.