Help - Search - Members - Calendar
Full Version: Sepulcro - Vengeance (2018)
Metal Area - Extreme Music Portal > Releases Area / Релизы > Archive > Low Bitrate Archive (read only)
Samaritianin


*Artist: Sepulcro
*Album: Vengeance
*Year: 2018
*Genre: Thrash Metal
*Country: Peru
*Format: mp3@CBR192kbps
*Size: 73MB

Tracklist:
1. Vengeance
2. Crematorio
3. Profecia
4. La Prueba (De Fuego)
5. Master of War
6. Vestigios del Futuro
7. Power's Trace
8. Sepulcro
9. Escena de la Realidad
10. Final Sin
******************************
Total playing time: 53:11



Extended info
В Лоу
Miguel Hernández (Guitars, Vocals (choirs))
Miguel Huamán (Vocals, Guitars)
César Morán (Bass)
Renato Bar (Drums)


Technical info

Input File: 03 - Profecia.mp3
Channels : 2
Sample Rate : 44100
Precision : 16-bit
Duration : 00:05:48.24 = 15357340 samples = 26117.9 CDDA sectors
File Size : 8.36M
Bit Rate : 192k
Sample Encoding: MPEG audio (layer I, II or III)
Comments :
Title=Profecia
Artist=Sepulcro
Album=Vengeance
Tracknumber=3
Year=2018
Genre=Thrash Metal



[ Hidden Text ]
avkruchinin
Пацаны к успеху дебютнику шли 31 год crazy.gif

А по превью нормально так, забираю!
Andrew
ЦИТАТА(avkruchinin @ Jun 17 2018, 17:21:55) *
Пацаны

Да уже дяденьки за 50!
avkruchinin
ЦИТАТА(Andrew @ Jun 18 2018, 00:32:39) *
Да уже дяденьки за 50!

Так пацанами были ещё, когда сию группу организовали.
vosmidesijatye
ЦИТАТА(Andrew @ Jun 18 2018, 00:32:39) *
Да уже дяденьки за 50!


Все мы дети изрядного возраста (с) Андрей Владимирович Кручинин - Наполеон.

А альбом хорош, знатно жгут! 9.gif
This is a "lo-fi" version of our main content. To view the full version with more information, formatting and images, please click here.
Invision Power Board © 2001-2019 Invision Power Services, Inc.