Help - Search - Members - Calendar
Full Version: Obsolete Theory - Mudness (2018)
Metal Area - Extreme Music Portal > Releases Area / Релизы > Archive
Samaritianin


*Artist: Obsolete Theory
*Album: Mudness
*Year: 2018
*Genre: Blackened Death Metal
*Country: Italy
*Format: mp3@CBR320kbps
*Size: 116MB

Tracklist:
1. Salmodia III 10:12
2. Six Horses of Death 09:19
3. Dawn Chant 08:21
4. Sirius Blood 12:06
5. The God with the Crying Mask 09:58
******************************
Total playing time: 49:56



Extended info
Mordaul Guitars
OW_Raygon Guitars
Tote Percussion
Daevil Vocals
Bolthorn Bass
Sa' Vaanth Drums


Technical info

Input File: 02 Six Horses of Death.mp3
Channels : 2
Sample Rate : 44100
Precision : 16-bit
Duration : 00:09:19.23 = 24661999 samples = 41942.2 CDDA sectors
File Size : 22.8M
Bit Rate : 326k
Sample Encoding: MPEG audio (layer I, II or III)
Comments :
Title=Six Horses Of Death
Artist=Obsolete Theory
Album=Mudness
Tracknumber=02/05
Year=2018
Genre=Rock
Discnumber=1/1



[ Hidden Text ]
Samaritianin
[ Hidden Text ]
fateefffddd
привью понравилось!! качаю буду расслушивать
isvili
Это нужно внимательно слушать, интересная музыка.
This is a "lo-fi" version of our main content. To view the full version with more information, formatting and images, please click here.
Invision Power Board © 2001-2018 Invision Power Services, Inc.