Help - Search - Members - Calendar
Full Version: Dreadful Fate - Vengeance (2018)
Metal Area - Extreme Music Portal > Releases Area / Релизы > New Releases
Samaritianin


*Artist: Dreadful Fate
*Album: Vengeance
*Year: 2018
*Genre: Old School Thrash/Death Metal
*Country: Sweden
*Format: mp3@CBR320kbps
*Size: 54MB

Tracklist:
1. Vengeance 02:15
2. Death Sentence 02:37
3. Altar of Cruelty 04:06
4. Unholy Lust 03:19
5. Witches Hammer 03:49
6. Hour of Reprisal 03:13
7. Eternal Fire 02:47
8. The Final Sacrifice 03:47
******************************
Total playing time: 25:53




Extended info
Total Destruction Bass
Corpse Skelethor Drums
Death Ripper Guitars
Bestial Vocals


Technical info

Input File: 03. Altar of Cruelty.mp3
Channels : 2
Sample Rate : 44100
Precision : 16-bit
Duration : 00:04:05.94 = 10845910 samples = 18445.4 CDDA sectors
File Size : 9.92M
Bit Rate : 323k
Sample Encoding: MPEG audio (layer I, II or III)
Comments :
Title=Altar Of Cruelty
Artist=Dreadful Fate
Album=Vengeance
Tracknumber=03
Year=2018
Genre=Р РѕРє
Discnumber=1



[ Hidden Text ]
Samaritianin
[ Hidden Text ]
DarkHorde
Превьюхи ваще башкотрясные и угарные metaler.gif Срочно качать и слушать
Andrew
Спору нет, олд скул во всей красе!
defamer666

Дэта здесь вообще нет,хотя он и многозначительно значится на архивах - олдскульно-угарный Blackened Thrash! true_black.gif

Язва
Death/Thrash без особого удовольствия от прослушивания...
6-7/10
This is a "lo-fi" version of our main content. To view the full version with more information, formatting and images, please click here.
Invision Power Board © 2001-2018 Invision Power Services, Inc.