Help - Search - Members - Calendar
Full Version: Massenhinrichtung - Апошняя Птушка Надзеі (2018)
Metal Area - Extreme Music Portal > Releases Area / Релизы > Archive
vasilisk


*Artist: Massenhinrichtung
*Album: Апошняя Птушка Надзеі
*Year: 2018
*Genre: Melodic Black/Pagan Metal
*Country: Belarus
*Format: mp3@CBR320kbps
*Size: 102MB

Tracklist:
1. Краявiды Багны
2. Дно
3. Чорвань - Балотны Агонь
4. Пульс Жыцця
5. Чорная Вена
6. Апошняя Птушка Надзеi
7. Масавая Кара
8. Краявiды Бясконцасцi
******************************
Total playing time: 44:35

Technical info

Input File: 06 - Апошняя Птушка Надзеi.mp3
Channels : 2
Sample Rate : 44100
Precision : 16-bit
Duration : 00:06:32.11 = 17292095 samples = 29408.3 CDDA sectors
File Size : 15.8M
Bit Rate : 321k
Sample Encoding: MPEG audio (layer I, II or III)
Comments :
Title=Апошняя Птушка Надзеi
Artist=Massenhinrichtung
Album=Апошняя Птушка Надзеі
Tracknumber=6
Year=2018
Genre=Melodic Black/Pagan Metal



[ Hidden Text ]
popen13
gena
Странно, что тишина. больше всего понравились 2 и 6 тема. альбом неимоверно крутой, возможно, лучшее за последнее время в Восточной Европе
neoatheist
ЦИТАТА(gena @ Jun 16 2018, 20:23:11) *
Альбом неимоверно крутой, возможно, лучшее за последнее время в Восточной Европе

dooo.gif В текущем году - 100%.
vosmidesijatye
О, получился неплохой релиз действительно!

Жду перевода названий на русский язык от Ангара. smile1.gif
Фо
Апошняя птушка с тумботвареком та пятностропильцем подсобрались да понадкусывать надзирушника...
Vakhanal
По превью на bandcamp какой-то Король и Шут. Поют "дзе мой смутак-жаль", слышу "проклятый старый дом". Дальше весь альбом слушать не буду, хотя прошлые были ничего.
isvili
ЦИТАТА(gena @ Jun 16 2018, 20:23:11) *
альбом неимоверно крутой, возможно, лучшее за последнее время в Восточной Европе
Бурштин 2018 в разы лучше будет. Тут точно какой то Король и Шут)))))
Moonshtook
ЦИТАТА(isvili @ Jun 18 2018, 19:36:08) *
Бурштин 2018 в разы лучше будет. Тут точно какой то Король и Шут)))))

А он выйдет?
RUSP73
Для меня слишком попсово...да и вокал такой не нравится
Tular
Офигенный альбом!
Samogon
Король и борщ ))) 10/10
This is a "lo-fi" version of our main content. To view the full version with more information, formatting and images, please click here.
Invision Power Board © 2001-2018 Invision Power Services, Inc.