Help - Search - Members - Calendar
Full Version: Beriedir - The Path Beyond The Moon (2018)
Metal Area - Extreme Music Portal > Releases Area / Релизы > Archive
aesteticvice


*Artist: Beriedir
*Album: The Path Beyond The Moon
*Year: 2018
*Genre: Power Metal
*Country: Italy
*Format: mp3@CBR320kbps
*Size: 122MB

Tracklist:
01. Intro 00:41
02. The Line 03:54
03. Skies of Infinity 04:47
04. Prime Mover 03:49
05. The Blessing 05:21
06. Damnatio Memoriae 04:36
07. Third Chant 04:29
08. D.R.O.C. 04:21
09. Interstellar 05:05
10. Singularity Overture 01:09
11. Event Horizon 04:56
12. The Path to Zenalia 07:55
******************************
Total playing time: 51:03



Extended info
Stefano Nusperli: Voice, Keyboards
Daniele Cantaboni: Bass Guitar
Marco Boffelli: Guitar
Ciro Salvi: Drums



Technical info

Input File: 04 Prime Mover.mp3
Channels : 2
Sample Rate : 44100
Precision : 16-bit
Duration : 00:03:48.66 = 10083994 samples = 17149.6 CDDA sectors
File Size : 9.63M
Bit Rate : 337k
Sample Encoding: MPEG audio (layer I, II or III)
Comments :
Title=Prime Mover
Artist=Beriedir
Album=The Path Beyond The Moon
Tracknumber=4/12
Year=2018
Genre=Metal
Discnumber=1/1



[ Hidden Text ]
aesteticvice
mirror
[ Hidden Text ]
MeatWolf
В превью какая-то Эпидемия с электроникой.
zauber1
ЦИТАТА(MeatWolf @ Jun 18 2018, 17:00:52) *
В превью какая-то Эпидемия с электроникой.


Скорее тогда уж на Arida Vortex раннюю похоже. И не в хорошем смысле.
Dreamtale
ЦИТАТА(MeatWolf @ 18th June 2018 - 17:00:52) *
В превью какая-то Эпидемия с электроникой.

This is a "lo-fi" version of our main content. To view the full version with more information, formatting and images, please click here.
Invision Power Board © 2001-2018 Invision Power Services, Inc.