Help - Search - Members - Calendar
Full Version: Mistress Of The Dead - Funeral Within Me [ep] (2018)
Metal Area - Extreme Music Portal > Releases Area / Релизы > New Releases
smysl


*Artist: Mistress Of The Dead
*Album: Funeral Within Me [ep]
*Year: 2018
*Genre: Funeral Doom Metal
*Country: Czech Republic
*Format: mp3@CBR320kbps
*Size: 45MB

Tracklist:
1.Reflection of Red Rose in the Black Marble Tombstone Beside Her Face 18:31
******************************
Total playing time: 18:31



Technical info

Input File: 01 Reflection of Red Rose in the Black Marble Tombstone Beside Her Face.mp3
Channels : 2
Sample Rate : 44100
Precision : 16-bit
Duration : 00:18:33.83 = 49119947 samples = 83537.3 CDDA sectors
File Size : 44.6M
Bit Rate : 320k
Sample Encoding: MPEG audio (layer I, II or III)
Comments :
Title=Reflection of Red Rose in the Black Marble Tombstone Beside Her Face
Artist=Mistress Of The Dead
Album=Funeral Within Me
Tracknumber=1
Year=2018
Genre=Funeral Doom Metal



[ Hidden Text ]
vosmidesijatye
Песня то не новая, на демо 2007 года появлялась.
isvili
Очень не плохо, жаль что мало.
This is a "lo-fi" version of our main content. To view the full version with more information, formatting and images, please click here.
Invision Power Board © 2001-2018 Invision Power Services, Inc.