Help - Search - Members - Calendar
Full Version: Burning Flesh - Human Flesh Fertilizer (2018)
Metal Area - Extreme Music Portal > Releases Area / Релизы > Archive
aesteticvice


*Artist: Burning Flesh
*Album: Human Flesh Fertilizer
*Year: 2018
*Genre: Technical Brutal Death Metal
*Country: Switzerland
*Format: mp3@VBR273kbps
*Size: 96MB

Tracklist:
01. The Great Take Over of Tellus 00:52
02. Chain Reaction 04:53
03. Wall of Lead 03:46
04. Acid Ocean 04:08
05. Human Flesh Fertilizer 03:58
06. Burning UV Rays 03:55
07. Corium 03:54
08. Human Vivisection 04:47
09. Carnivore Mycose 03:48
10. The Last Animal to Kill 03:58
11. Feeding Earthworms 03:45
12. Mankind Overclocked 05:37
******************************
Total playing time: 47:21




Extended info
Location: Gex, France/Geneva, Switzerland

Anthony - Guitars (lead) (2005-present)
Diego - Guitars (rhythm) (2007-present)
Guillaume - Bass (2011-present)
Mulk - Vocals (2014-present) See also: Abrupt, Blue Herps, Clitorape, Nutriment, Sedative, ex-Whourkr, Mulk
Sylvain Chambard - Drums (2016-present) See also: Recueil Morbide, Xaon, ex-Unscared
feat. Tom from Mumakil and Ben from Omophagia



Technical info

Input File: 03-burning_flesh-wall_of_lead.mp3
Channels : 2
Sample Rate : 44100
Precision : 16-bit
Duration : 00:03:45.72 = 9954428 samples = 16929.3 CDDA sectors
File Size : 7.70M
Bit Rate : 273k
Sample Encoding: MPEG audio (layer I, II or III)
Comments :
Title=Wall of Lead
Artist=Burning Flesh
Album=Human Flesh Fertilizer
Tracknumber=3/12
Year=2018
Genre=Death Metal
Discnumber=1/1



[ Hidden Text ]
aesteticvice
mirror
[ Hidden Text ]
[ Hidden Text ]


Moonshtook
Любителям NIle понравится
This is a "lo-fi" version of our main content. To view the full version with more information, formatting and images, please click here.
Invision Power Board © 2001-2018 Invision Power Services, Inc.