Help - Search - Members - Calendar
Full Version: Deflesh The Abducted - Pandemic Obliteration (2018)
Metal Area - Extreme Music Portal > Releases Area / Релизы > Archive
aesteticvice


*Artist: Deflesh The Abducted
*Album: Pandemic Obliteration
*Year: 2018
*Genre: Brutal Death Metal
*Country: Venezuela
*Format: mp3@VBR279kbps
*Size: 59MB

Tracklist:
1. Through the Eyes of a Killer 04:13
2. Pandemic Obliteration 02:42
3. Sexual Assault 02:55
4. Matricidal Abomination 02:40
5. Sickening Voices 05:55
6. For The Process Of human Infection (Interlude) 02:01
7. Necroarmagedon 03:29
8. Rotten Remnants of a Mangled Whore 03:37
******************************
Total playing time: 27:32




Extended info
Thor Chacin - Bass
Nelson Sánchez - Drums
Raúl Trejo - Guitars
Sairio Peña - Vocals
Ricardo Velásquez - Vocals


Technical info

Input File: 02-deflesh_the_abducted-pandemic_obliteration.mp3
Channels : 2
Sample Rate : 44100
Precision : 16-bit
Duration : 00:02:44.57 = 7257581 samples = 12342.8 CDDA sectors
File Size : 5.70M
Bit Rate : 277k
Sample Encoding: MPEG audio (layer I, II or III)
Comments :
Title=Pandemic Obliteration
Artist=Deflesh The Abducted
Album=Pandemic Obliteration
Tracknumber=2/8
Year=2018
Genre=Death Metal
Discnumber=1/1



[ Hidden Text ]
aesteticvice
MIRROR
[ Hidden Text ]

AHBAnep
mittal
Хорочий кач!
This is a "lo-fi" version of our main content. To view the full version with more information, formatting and images, please click here.
Invision Power Board © 2001-2018 Invision Power Services, Inc.