Help - Search - Members - Calendar
Full Version: Vyre - Weltformel (2018)
Metal Area - Extreme Music Portal > Releases Area / Релизы > Archive
Samaritianin


*Artist: Vyre
*Album: Weltformel
*Year: 2018
*Genre: Avant-Garde/Black Metal
*Country: Germany
*Format: mp3@CBR320kbps
*Size: 119MB

Tracklist:
1. Alles auf Ende 04:56
2. Shadow Biosphere 07:49
3. Life Decoded 07:52
4. Tardigrade Empire 08:43
5. The Hitch (We Are Not Small) 05:46
6. We Are the Endless Black 07:31
7. Away Team Alpha 09:41
******************************
Total playing time: 52:18




Extended info
Zyan Guitars
Hedrykk F. Gausenatt Guitars, Programmings, Bass
Cypher D. Rex Vocals
Android Drums
Faruk Keyboards, Synthesizer
Nostarion Cello


Technical info

Input File: 02 - Shadow Biosphere.mp3
Channels : 2
Sample Rate : 44100
Precision : 16-bit
Duration : 00:07:49.43 = 20701687 samples = 35207 CDDA sectors
File Size : 18.8M
Bit Rate : 320k
Sample Encoding: MPEG audio (layer I, II or III)
Comments :
Title=Shadow Biosphere
Artist=Vyre
Album=Weltformel
Tracknumber=2
Year=2018
Genre=Black Metal



[ Hidden Text ]
Samaritianin
[ Hidden Text ]
paganheart
Очень приятственная музыка - фэнам Арктуруса должно вкатить. headcrab.png
vosmidesijatye
Приятственно да как и зачастую многое из страны не запорожцев но мерседесов, пользуясь выражением брутального 15.gif
This is a "lo-fi" version of our main content. To view the full version with more information, formatting and images, please click here.
Invision Power Board © 2001-2018 Invision Power Services, Inc.