Help - Search - Members - Calendar
Full Version: Sweaty Mammoth - Borrowed Light (2018)
Metal Area - Extreme Music Portal > Releases Area / Релизы > Archive
fylopaloma


*Artist: Sweaty Mammoth
*Album: Borrowed Light
*Year: 2018
*Genre: Sludge/Stoner Metal/Rock
*Country: United States
*Format: mp3@CBR320kbps
*Size: 79MB

Tracklist:
1. Things to Come 04:41
2. Anchovy Desert 06:31
3. Gimpfinger 02:35
4. North Korean Interlude 04:44
5. Too much Flesh 08:59
6. Ice Queen 06:42
******************************
Total playing time: 34:12





Technical info

Input File: 02 Anchovy Desert.mp3
Channels : 2
Sample Rate : 44100
Precision : 16-bit
Duration : 00:06:31.42 = 17261490 samples = 29356.3 CDDA sectors
File Size : 15.9M
Bit Rate : 325k
Sample Encoding: MPEG audio (layer I, II or III)
Comments :
Title=Anchovy Desert
Artist=Sweaty Mammoth
Year=2018
Genre=Metal



[ Hidden Text ]
snot
Давненько я такого забойного проходняка не слушал...
This is a "lo-fi" version of our main content. To view the full version with more information, formatting and images, please click here.
Invision Power Board © 2001-2018 Invision Power Services, Inc.