Help - Search - Members - Calendar
Full Version: Krahnholm - Granting Death (2018)
Metal Area - Extreme Music Portal > Releases Area / Релизы > New Releases
Samaritianin


*Artist: Krahnholm
*Album: Granting Death
*Year: 2018
*Genre: Atmospheric Black Metal
*Country: Russian Federation
*Format: mp3@CBR320kbps
*Size: 82MB

Tracklist:
1. Abyss Inside 06:44
2. A Whirlwind of a Thousand Blades 06:01
3. Granting Death 07:29
4. Scorching Storm 06:23
5. The Feast of Decayed Souls 06:13
6. Ravens Feather, Wolfs Fang 01:45
******************************
Total playing time: 34:35




Extended info
Horm Drums
Troy Guitars, Music, Lyrics
Malus Vocals, Lyrics
Ovod Bass


Technical info

Input File: 02 A Whirlwind of a Thousand Blades.mp3
Channels : 2
Sample Rate : 44100
Precision : 16-bit
Duration : 00:06:01.08 = 15923804 samples = 27081.3 CDDA sectors
File Size : 14.9M
Bit Rate : 331k
Sample Encoding: MPEG audio (layer I, II or III)
Comments :
Title=A Whirlwind of a Thousand Blades
Artist=Krahnholm
Album=Granting Death
Tracknumber=2/6
Year=2018
Genre=Alternative
Discnumber=1/1



[ Hidden Text ]
Samaritianin
[ Hidden Text ]
Daale
Общался тут с одним из участников группы. Плейлист, который на Архивах и здесь, неправильный.
vovenom
ЦИТАТА(Daale @ Jun 21 2018, 01:53:27) *
Общался тут с одним из участников группы. Плейлист, который на Архивах и здесь, неправильный.

А какой правильный, не вкурсе?
Daale
vovenom, Сейчасн на Архивах должны были участники пофиксить. Чекни. Если другой — тот, что на Архивах, правильный.
Moonshtook
C нормальным плейлистом перезалейте, если есть у кого
This is a "lo-fi" version of our main content. To view the full version with more information, formatting and images, please click here.
Invision Power Board © 2001-2018 Invision Power Services, Inc.