*Artist: The Wreckage
*Album: Unleashed
*Year: 2018
*Genre: Deathcore
*Country: Singapore
*Format: mp3@CBR320kbps
*Size: 80MB

Tracklist:
01. Purity
02. Soaked in Blood
03. Void Decadence
04. Sacrilege
05. Hecatomb
06. Imperium Illuminatus
07. Unleashed
08. Destructive Intent
09. Skinned and Hung up to Dry
10. Draugar
11. Requiem for the Forgotten
******************************
Total playing time: 35:00




Technical info

Input File: 02. Soaked in Blood.mp3
Channels : 2
Sample Rate : 44100
Precision : 16-bit
Duration : 00:03:11.47 = 8443607 samples = 14359.9 CDDA sectors
File Size : 7.66M
Bit Rate : 320k
Sample Encoding: MPEG audio (layer I, II or III)
Comments :
Title=Soaked in Blood
Artist=The Wreckage
Album=Unleashed
Tracknumber=2/11
Year=2018



[ Hidden Text ]