Help - Search - Members - Calendar
Full Version: Skjaldar - Revision (2018)
Metal Area - Extreme Music Portal > Releases Area / Релизы > Archive
necroscum


*Artist: Skjaldar
*Album: Revision
*Year: 2018
*Genre: Pagan Black Metal
*Country: Germany
*Format: mp3@CBR320kbps
*Size: 100MB

Tracklist:
01. Niedergang
02. Karg
03. Monument des Schattens
04. Alter Wachter
05. Geistermoor
06. Skadi
07. Lass Leben flieen
08. Gjallar erklingt
09. Andacht
10. Totenruf
******************************
Total playing time: 43:41



Technical info

Input File: 02. Karg.mp3
Channels : 2
Sample Rate : 44100
Precision : 16-bit
Duration : 00:04:20.12 = 11471204 samples = 19508.9 CDDA sectors
File Size : 10.4M
Bit Rate : 320k
Sample Encoding: MPEG audio (layer I, II or III)
Comments :
Title=Karg
Artist=Skjaldar
Album=Revision
Tracknumber=2/10
Year=2018



[ Hidden Text ]
craP_cillA
correct name of the album is "Re:vision"

9.gif
squall8fr
Youtube Preview
This is a "lo-fi" version of our main content. To view the full version with more information, formatting and images, please click here.
Invision Power Board © 2001-2018 Invision Power Services, Inc.