Help - Search - Members - Calendar
Full Version: Hatchet - Dying To Exist (2018)
Metal Area - Extreme Music Portal > Releases Area / Релизы > Archive
Samaritianin


*Artist: Hatchet
*Album: Dying To Exist
*Year: 2018
*Genre: Thrash Metal
*Country: United States
*Format: mp3@CBR320kbps
*Size: 99MB

Tracklist:
1. Unraveling Existence
2. Silent Genocide
3. Desire for Oppression
4. Illusions of Hope
5. Warsaw
6. Where Futures Regress
7. Back into Dust
8. Final Sanctuary
9. Descent into Madness
10. Oblivious to Disorder
11. Hail to the Lies
12. World in a World
******************************
Total playing time: 43:56



Extended info
Devin Reiche Bass
Julz Ramos Guitars (lead), Vocals
Ben Smith Drums
Clayton Cagle Guitars (lead)



Technical info

Input File: 04 Illusions of Hope.mp3
Channels : 2
Sample Rate : 44100
Precision : 16-bit
Duration : 00:04:54.96 = 13007868 samples = 22122.2 CDDA sectors
File Size : 11.8M
Bit Rate : 320k
Sample Encoding: MPEG audio (layer I, II or III)
Comments :
Title=Illusions of Hope
Artist=Hatchet
Album=Dying to Exist
Tracknumber=4
Year=2018
Genre=Thrash Metal



[ Hidden Text ]
Samaritianin
[ Hidden Text ]
[ Hidden Text ]
vosmidesijatye
@320

[ Hidden Text ]

sta1081
Классно играют,соляки прям отпад!
Samaritianin
По мне-так это явный претендент на альбом года в треше. Молодцы-все продуманно до мельчайших деталей,-аранжировки,звук,мелодии,и вокал в самую масть!С 9 утра только он в плеере сегодня-и выключать не хочется! metaler.gif metaler.gif metaler.gif 20.gif
sadmannn
Как по мне - всё портит вокал, если бы харча да грува в него влить...
А так - Overkill, более скоростной и мелодичный
Фоном пойдёт
Diflock
Погонял сих пару раз(не фоном), очень энергично/мелодично местами и крайне профессионально сделано.
isvili
Все отменно, впрочем как и предыдущие.
DTGB
Спасибо, брат, порадовал в очередной раз!
Одна из лучших (если не лучшая) из современных трэш-групп. Слава Богу, выдавая на гора очередной альбом, не скатываются в унылое соплежуйство, как их многие коллеги. И что ещё радует, что вокал именно подходит к музыке, нет никаких грувов или попсовых распевок вперемежку с рычанием. Дистракшн рулит!!!
Будем надеяться, что диск японцы клепанут! metaler.gif
slack
Во я пропустил. Одна из любимых групп моих. Только их диско на днях гонял...
pray.gif
avkruchinin
Для новодела очень даже халяльно banana.gif
Andrew
ЦИТАТА(avkruchinin @ Jun 24 2018, 12:22:46) *
Для новодела очень даже халяльно banana.gif

А чего новодел? 4 альбом все таки.
avkruchinin
ЦИТАТА(Andrew @ Jun 24 2018, 19:59:00) *
А чего новодел? 4 альбом все таки.

Так 2018 год же на дворе 1488.gif
slack
Пожалуй это "The Best of 2018"
И вряд ли мы услышим что то лучше, учитывая, что все монстры вышли годом-другим ранее.
Язва
Техничный (в меру) драйвовый и профессиональный (по звуку) трэш. Хитовости не хватает, но в целом очень даже 8+/10
Samaritianin
ЦИТАТА(Язва @ 3rd July 2018 - 13:22:32) *
Хитовости не хватает

а по мне так этот альбом сам по себе весь хитяра! его выключать рука не поднимается пока весь
не доиграет до конца 20.gif
hammer
ЦИТАТА(Samaritianin @ Jul 3 2018, 15:44:42) *
а по мне так этот альбом сам по себе весь хитяра! его выключать рука не поднимается пока весь
не доиграет до конца 20.gif

Не, три раза прослушал и так и не понял , почему ТАК хвалят.Ну не плохо, но как по мне убойных рифов ну очень мало.Ну в общем четвертого шанса не дам им.
slack
ЦИТАТА(hammer @ Jul 16 2018, 20:40:56) *
Не, три раза прослушал и так и не понял , почему ТАК хвалят.Ну не плохо, но как по мне убойных рифов ну очень мало.Ну в общем четвертого шанса не дам им.

Зря. Хороший. Нравится.
This is a "lo-fi" version of our main content. To view the full version with more information, formatting and images, please click here.
Invision Power Board © 2001-2018 Invision Power Services, Inc.