Help - Search - Members - Calendar
Full Version: Khemmis - Desolation (2018)
Metal Area - Extreme Music Portal > Releases Area / Релизы > Archive
aesteticvice


*Artist: Khemmis
*Album: Desolation
*Year: 2018
*Genre: Heavy/Doom Metal
*Country: United States
*Format: mp3@CBR320kbps
*Size: 99MB

Tracklist:
1. Bloodletting 06:24
2. Isolation 04:48
3. Flesh to Nothing 07:31
4. The Seer 06:02
5. Maw of Time 07:23
6. From Ruin 09:27
******************************
Total playing time: 41:35




Extended info
Dan - Bass (ex-Lords of Fuzz)
Zach - Drums (Dominion, Vasaeleth, Dagon, Aat)
Ben - Vocals, Guitars (Glacial Tomb, ex-Burial Within, ex-Galaxicon)
Phil - Vocals, Guitars


Technical info

Input File: 02 Isolation.mp3
Channels : 2
Sample Rate : 44100
Precision : 16-bit
Duration : 00:04:48.10 = 12705078 samples = 21607.3 CDDA sectors
File Size : 12.2M
Bit Rate : 339k
Sample Encoding: MPEG audio (layer I, II or III)
Comments :
Title=Isolation
Artist=Khemmis
Album=Desolation
Tracknumber=2/6
Year=2018
Genre=9
Discnumber=1/1



[ Hidden Text ]
aesteticvice
MIRROR
[ Hidden Text ]

Black Cat
Ето кайф, марожено! (с)
kasart
Сильная работа! Надо послушать прошлые альбомы, а то как-то даже не слышал эту группу.
This is a "lo-fi" version of our main content. To view the full version with more information, formatting and images, please click here.
Invision Power Board © 2001-2018 Invision Power Services, Inc.