*Artist: Goreified
*Album: The Stench Of Putrescent Flesh [ep]
*Year: 2018
*Genre: Brutal Death Metal/Goregrind
*Country: United States
*Format: mp3@CBR320kbps
*Size: 49MB

Tracklist:
01. Mental Murder 05:21
02. Leftover Carcass 03:31
03. Night Of Gore 03:48
04. Sexual Dismemberment 02:55
05. Das Kannibale 03:59
06. Living In Carnage (Feat. Chris From Apoplexy) 01:41
******************************
Total playing time: 21:15




Technical info

Input File: 02. Leftover Carcass.mp3
Channels : 2
Sample Rate : 44100
Precision : 16-bit
Duration : 00:03:31.76 = 9338616 samples = 15882 CDDA sectors
File Size : 8.72M
Bit Rate : 329k
Sample Encoding: MPEG audio (layer I, II or III)
Comments :
Title=Leftover Carcass
Artist=Goreified
Album=The Stench of Putrescent Flesh
Tracknumber=2
Year=2018



[ Hidden Text ]