Help - Search - Members - Calendar
Full Version: Carrion - Time To Suffer (2018)
Metal Area - Extreme Music Portal > Releases Area / Релизы > Archive
Samaritianin


*Artist: Carrion
*Album: Time To Suffer
*Year: 2018
*Genre: Death Metal
*Country: Belgium
*Format: mp3@CBR320kbps
*Size: 98MB

Tracklist:
1. So It Begins 01:20 instrumental
2. Mutilation 03:37
3. Supreme 04:12
4. Urge 04:26
5. Plague 04:58
6. Gingergrind 03:38
7. Death from Deep Within 03:14
8. Torment 04:29
9. Defiled Sanity 05:24
10. In The End, There Is Only Death 04:41
******************************
Total playing time: 39:59





Extended info
Mathieu Vander Vennet Guitars
Jan Van den Berghe Guitars
Sven Van Severen Vocals
Sam Philipsen Bass


Technical info

Input File: 03 Supreme.mp3
Channels : 2
Sample Rate : 44100
Precision : 16-bit
Duration : 00:04:12.36 = 11128900 samples = 18926.7 CDDA sectors
File Size : 10.8M
Bit Rate : 342k
Sample Encoding: MPEG audio (layer I, II or III)
Comments :
Title=Supreme
Artist=Carrion
Album=Time to Suffer
Tracknumber=3/10
Year=2018
Genre=Rock
Discnumber=1/1



[ Hidden Text ]
Samaritianin
[ Hidden Text ]
This is a "lo-fi" version of our main content. To view the full version with more information, formatting and images, please click here.
Invision Power Board © 2001-2018 Invision Power Services, Inc.