Help - Search - Members - Calendar
Full Version: Graviton - Per Erebus Ad Astra (2018)
Metal Area - Extreme Music Portal > Releases Area / Релизы > Archive
aesteticvice


*Artist: Graviton
*Album: Per Erebus Ad Astra
*Year: 2018
*Genre: Technical Thrash/Death Metal
*Country: United States
*Format: mp3@CBR320kbps
*Size: 103MB

Tracklist:
01. Per Erebus
02. My Degeneration
03. Signals from Beyond
04. Inveterate
05. The Alchemist
06. Shattered Repose
07. Vulcan
08. Tomes of the Mystic
09. Ad Astra
10. Ngc 1277, Pt. II
******************************
Total playing time: 41:22




Extended info

Yoav Ruiz-Feingold - Bass (Sardonius, The Offering)
Anthony Medaglia - Drums (ex-Aversed, ex-Seven Spires )
Cam Tidman - Guitars (ex-Seven Spires)
Taylor Scott - Vocals


Technical info

Input File: 04 Inveterate.mp3
Channels : 2
Sample Rate : 44100
Precision : 16-bit
Duration : 00:02:41.03 = 7101423 samples = 12077.2 CDDA sectors
File Size : 7.38M
Bit Rate : 367k
Sample Encoding: MPEG audio (layer I, II or III)
Comments :
Title=Inveterate
Artist=Graviton
Album=Per Erebus Ad Astra
Tracknumber=4/10
Year=2018
Discnumber=1/1



[ Hidden Text ]
aesteticvice
Я бы назвал это экстремальный трэш метал с техникал и прогрессив элементами. Забойная штука без модерновых влияний.

aesteticvice
MIRROR
[ Hidden Text ]
шикарный эпик 20.gif как же он горло-то дерет убойно
Genuine Thrashiac
Так, народ, отпишитесь - у кого ещё не работают Ютуб-видеоролики, которые именно эстетичный выкладывает для превью?

Хорошо, что есть бэндкемп - там и послушаю.
AHBAnep
ЦИТАТА(Genuine Thrashiac @ Jun 22 2018, 01:59:38) *
Так, народ, отпишитесь - у кого ещё не работают Ютуб-видеоролики, которые именно эстетичный выкладывает для превью?

Хорошо, что есть бэндкемп - там и послушаю.


Сам же выкладывал их ипиху когда-то.. Кажется, этот альбом интереснее.
А ютьюб-ролики в порядке.
raritetum
Ролики недоступны. Приходится искать на ютубе самому.
Ghostb
ЦИТАТА(Genuine Thrashiac @ Jun 22 2018, 01:59:38) *
у кого ещё не работают Ютуб-видеоролики, которые именно эстетичный выкладывает для превью?

В этой теме - не работают, в новом Doomed, к примеру - все норм.

Upd: Глянул еще несколько топиков - 50/50 примерно, короче. Странно 21.gif Но я вообще ютуб-ролики нормально вставлять не умею 1488.gif
avkruchinin
А на архивах говорят, что это Blackened Thrash Metal?

Послушал превьюшки, склонен им поверить.
aesteticvice
ЦИТАТА(avkruchinin @ Jun 24 2018, 13:46:35) *
А на архивах говорят, что это Blackened Thrash Metal?

Послушал превьюшки, склонен им поверить.

и что тебя склонило? мне интересно, где ты там блэк услышал? а вот группа считает, что играет экстремальный трэш с олдскул корнями, я склонен им поверить 1488.gif
avkruchinin
ЦИТАТА(aesteticvice @ Jun 24 2018, 16:53:28) *
мне интересно, где ты там блэк услышал?

Не, блэк не услышал, да, а услышал приблэкованный трэш, так-то 1488.gif
babanguida
not very exciting
Язва
Не плохой альбом, но топорный какой-то. Вероятно из-за вокала.
Не считаю эту работу в числе лучших альбомов годав жанре и вообще.
7/10
vosmidesijatye
ЦИТАТА(avkruchinin @ Jun 24 2018, 18:11:48) *
так-то 1488.gif


Ставь копирайт!

Сабж скучен и уныл как бомж без опохмела.
This is a "lo-fi" version of our main content. To view the full version with more information, formatting and images, please click here.
Invision Power Board © 2001-2018 Invision Power Services, Inc.