Help - Search - Members - Calendar
Full Version: Deathgrave - So Real, It's Now (2018)
Metal Area - Extreme Music Portal > Releases Area / Релизы > Archive
aesteticvice


*Artist: Deathgrave
*Album: So Real, It's Now
*Year: 2018
*Genre: Death Metal
*Country: United States
*Format: mp3@CBR320kbps
*Size: 60MB

Tracklist:
01. Casket Bath
02. Not Your Average Liquor Store
03. So Real It's Now
04. Seeping Through the Shoebox
05. Trichotillo - Mania
06. This is What You Get Pt. 2
07. Live Fast Die Slow
08. This is What You Get Pt. 1
09. Carcass Stew
10. Bile-Ation
11. Hacker
12. You Can't Win
13. Face Forager
14. Carnival Grotesque
******************************
Total playing time: 26:25



Extended info
Andre Cornejo - Vocals
Greg Wilkinson - Guitar
Fern Alberts - Bass
Matt Thompson - Drums


Technical info

Input File: 03-deathgrave-so_real_its_now-d5d24058.mp3
Channels : 2
Sample Rate : 44100
Precision : 16-bit
Duration : 00:02:14.65 = 5937845 samples = 10098.4 CDDA sectors
File Size : 5.65M
Bit Rate : 336k
Sample Encoding: MPEG audio (layer I, II or III)
Comments :
Title=So Real It's Now
Artist=Deathgrave
Album=So Real It's Now
Tracknumber=3/14
Year=2018
Genre=Death Metal



[ Hidden Text ]
aesteticvice
MIRROR
[ Hidden Text ]


This is a "lo-fi" version of our main content. To view the full version with more information, formatting and images, please click here.
Invision Power Board © 2001-2018 Invision Power Services, Inc.