Help - Search - Members - Calendar
Full Version: Bookakee - Ignominies (2018)
Metal Area - Extreme Music Portal > Releases Area / Релизы > Archive > Low Bitrate Archive (read only)
Necrokilldozer


*Artist: Bookakee
*Album: Ignominies
*Year: 2018
*Genre: Progressive Death Metal/Experimental
*Country: Canada
*Format: mp3@CBR128kbps
*Size: 48MB

Tracklist:
1. Monarch of the Depraved 03:56
2. Ignominies 04:21
3. Bréhaigne 06:01
4. Oculus Nebula 05:18
5. Muliebria 04:05
6. Intermission 1 00:03
7. Mario Whirl 04:56
8. Refuge Insidieux 02:15
9. Intermission 2 00:05
10. Scullion 00:49
11. Celestial Decimation 11:36
12. As we Assault Empyrean 03:57
13. Noise 02:39
******************************
Total playing time: 50:01



Extended info
Line - up:

Jonathan David - Bass
Simon-Pierre Gagnon - Guitars (lead)
Philippe Langelier - Vocals (Oxidized Faith)
Jean-Philippe Bouchard - Drums (Magister Dixit, Morningless, Necronomicon, Oxidized Faith, ex-Obscurcis Romancia (live))
Jonathan Gagnon - Guitars



Technical info

Input File: 03 - Brehaigne.mp3
Channels : 2
Sample Rate : 44100
Precision : 16-bit
Duration : 00:06:01.50 = 15942062 samples = 27112.4 CDDA sectors
File Size : 5.79M
Bit Rate : 128k
Sample Encoding: MPEG audio (layer I, II or III)
Comments :
Title=Bréhaigne
Artist=Bookakee
Album=Ignominies
Tracknumber=3
Year=2018
Genre=Progressive Death Metal / Experimental



[ Hidden Text ]
aesteticvice
Experimental Deathcore crazy.gif
babanguida
progressive poo in the colon 15.gif
This is a "lo-fi" version of our main content. To view the full version with more information, formatting and images, please click here.
Invision Power Board © 2001-2019 Invision Power Services, Inc.