*Artist: Engulf
*Album: Gold And Rust [ep]
*Year: 2018
*Genre: Death Metal
*Country: United States
*Format: mp3@CBR128kbps
*Size: 11MB

Tracklist:
1. Maul 04:56
2. Misshapen Abomination 02:56
3. Sovereign to the Seven Underworlds 03:31
******************************
Total playing time: 11:23



Extended info
Line - up:

Hal Microutsicos - All instruments, Vocals (Blasphemous, Chapel of Ruin)


Technical info

Input File: 01. Maul.mp3
Channels : 2
Sample Rate : 48000
Precision : 16-bit
Duration : 00:04:55.81 = 14198784 samples ~ 22185.6 CDDA sectors
File Size : 4.74M
Bit Rate : 128k
Sample Encoding: MPEG audio (layer I, II or III)
Comments :
Title=Maul
Artist=Engulf
Album=Gold And Rust (EP)
Tracknumber=1
Year=2018
Genre=22



[ Hidden Text ]